Autor Tema: GoPro tips'n'tricks  (Pročitano 2463 puta)

0 članova i 1 gost pregledaju ovu temu.

Van mreže bear

  • Dominator
  • *****
  • Poruke: 5123
GoPro tips'n'tricks
« poslato: 22.07.2014 19:28:32 »
Posto znam da ima par ljudi ovde koji se bave video-materijalom i grafikom, da vas priupitam - jeste li se ikad igrali sa GoPro kamerama? Ja pokusavam da uploadujem neki materijal, ali ubija me koliko recimo YouTube unisti kvalitet. Ono, BAAAS je loshe. Evo primera, nesto sam snimio jutros



(premotati na oko 1:33 za blockfest)

Namerno sam isao rutom gde ima puno detalja (drvece i sl) da se bolje vide artefakti, ali ono, ono sto sam ja uploadovao nema nikakve veze sa ovim sto se ovde vidi. Gledao sam "recommended settings"-e youtube-a, sve radim teoretski kako treba al' dzabe, snimak je kao da je 300kbps... Izvorni fajl ovog videa je oko 25Mbps (1080p60 od 1.5GB za tih 6-7 minuta). Ovaj gore YT video je recimo rezultat direktnog uploada tog 1.5GB MP4 fajla, bez ikakve rekompresije.
« Poslednja izmena: 22.07.2014 19:39:34 bear »

Van mreže Relja

  • Administrator
  • Dominator
  • *****
  • Poruke: 16215
  • ALL HAIL MEGATRON!
    • http://www.photontide.org
Odg: GoPro tips'n'tricks
« Odgovor #1 poslato: 22.07.2014 21:29:26 »
Lepo Atila, lepo.

Enivej, iz mog iskustva ne postoji način da podesiš bitrate ili nešto slično za youtube, ali youtube bi trebalo najbolje da radi sa h264 videom. Trebalo bi, ako mu potrefiš pravi format, ne radi gotovo nikakav rekompres ili menjanje formata. A onda, u teoriji, ako kod tebe izgleda ok, trebalo bi i tamo da izgleda ok.

Van mreže Deadpool

  • Dominator
  • *****
  • Poruke: 3798
  • merc with a mouth
Odg: GoPro tips'n'tricks
« Odgovor #2 poslato: 22.07.2014 21:34:08 »
Jesi li probao da aplouduješ na Vimeo?

Van mreže bear

  • Dominator
  • *****
  • Poruke: 5123
Odg: GoPro tips'n'tricks
« Odgovor #3 poslato: 23.07.2014 00:05:51 »
Enivej, iz mog iskustva ne postoji način da podesiš bitrate ili nešto slično za youtube, ali youtube bi trebalo najbolje da radi sa h264 videom. Trebalo bi, ako mu potrefiš pravi format, ne radi gotovo nikakav rekompres ili menjanje formata. A onda, u teoriji, ako kod tebe izgleda ok, trebalo bi i tamo da izgleda ok.

Da, da... Jeste H264. Ono sto postavljam na YT:


Ono sto dobijem nazad na YT (quality je na 1080p) :


Razlika se vidi cak i na thumbovima, a kad se klikne za full-size... kuku... A ja definitivno nisam pixel-peeper. Nisam jos probao vimeo, ali gledajuci ove funky CG trajlere na YT, nekako nisam stekao utisak da je to svima problem :S

EDIT: Ugh, vimeo dopusta 1 HD upload nedeljno neplatisama :/ #Unimpressed
« Poslednja izmena: 23.07.2014 01:35:14 bear »

Van mreže Relja

  • Administrator
  • Dominator
  • *****
  • Poruke: 16215
  • ALL HAIL MEGATRON!
    • http://www.photontide.org
Odg: GoPro tips'n'tricks
« Odgovor #4 poslato: 23.07.2014 13:00:16 »
Ovde ima nekih preporučenih podešavanja:

https://support.google.com/youtube/answer/1722171?hl=en

Meni deluje da je ovde neki problem oko varuable bitrate-a. Ono, u nekom trenutku postane previše low bitrate za konstantno pokretnu sliku. Definitivno youtube rekompresuje snimak, ali pogrešđno procenjuje bitrate neophodan za određenu scenu.

A da, Vimeo se hvali kako je bolji kvalitet kod HD-a, ali u free verziji ima ograničenje na taj jedan HD snimak nedeljno. Sranje.
« Poslednja izmena: 23.07.2014 13:06:08 Relja »

Van mreže bear

  • Dominator
  • *****
  • Poruke: 5123
Odg: GoPro tips'n'tricks
« Odgovor #5 poslato: 23.07.2014 14:43:59 »
Ovde ima nekih preporučenih podešavanja:

https://support.google.com/youtube/answer/1722171?hl=en

Meni deluje da je ovde neki problem oko varuable bitrate-a. Ono, u nekom trenutku postane previše low bitrate za konstantno pokretnu sliku. Definitivno youtube rekompresuje snimak, ali pogrešđno procenjuje bitrate neophodan za određenu scenu.

Da, upravo sam ta podesavanja i probavao, ali cak i izvorni materijal je "po PS-u", on za "standard quality" preporucuje 8Mbps, a za  "high quality" 50Mbps, a gopro na defaultu ide na 25Mbps, sto bi taman trebao da bude izmedju. Na toj stranici YT cak *preporucuje* da se koristi VBR. Pokusacu da napravim kraci isecak pa da napravim par kombinacija i da vidim jel' utice to na YT rezultat i kako.

Jasno je meni da je gopro (pogoto u shumi) jedan od najgorih scenarija sto se tice video-kompresije, ali ima toliko dobrog YT materijala da ne znam sta oni rade da to na kraju ispadne normalno.

Van mreže Relja

  • Administrator
  • Dominator
  • *****
  • Poruke: 16215
  • ALL HAIL MEGATRON!
    • http://www.photontide.org
Odg: GoPro tips'n'tricks
« Odgovor #6 poslato: 23.07.2014 15:41:26 »
Da, mislim da je to misterija. Takođe sad čitam i deluje da youtube ima preferencije. Popularniji kanali dobijaju bolji "tretman" videa. Youtube ima 4 različita kontejner formata i 3 kodeka, a ti se ne pitaš koji će da koriste. Tako da... no luck.

Van mreže Igor

  • Dominator
  • *****
  • Poruke: 3085
Odg: GoPro tips'n'tricks
« Odgovor #7 poslato: 23.07.2014 16:11:03 »
Ja sad čitam da ako uzmeš 1080p Video i upscale-uješ ga na 2000+ dobijaš kvalitet "original" koji ima bolji bitrate...
"Let us think the unthinkable, let us do the undoable, let us prepare to grapple with the ineffable itself, and see if we may not eff it after all." - Douglas Adams

Van mreže bear

  • Dominator
  • *****
  • Poruke: 5123
Odg: GoPro tips'n'tricks
« Odgovor #8 poslato: 24.07.2014 09:36:11 »
Dzabe, probao sam da se igram sa kodecima, rezolucijom, fps-om, i dzabe. Gundj. 'Ajde sto je samoubica, ali sta koristi da pa nema kockica (shumski deo od 5:00)!


Van mreže neor

  • Dominator
  • *****
  • Poruke: 578
    • NEOR - naučna fantastika
Odg: GoPro tips'n'tricks
« Odgovor #9 poslato: 24.07.2014 14:49:37 »
Ako ti nešto znači ovo su detalji tog videa u 1080p sa YT:
Video: MPEG4 Video (H264) 1920x1080 29.97fps 4124kbps [V: h264 high L4.0, yuv420p, 1920x1080, 4124 kb/s]
ID                             : 1
Format                         : AVC
Format/Info                    : Advanced Video Codec
Format profile                 : High@L4.0
Format settings, CABAC         : Yes
Format settings, ReFrames      : 2 frames
Codec ID                       : avc1
Codec ID/Info                  : Advanced Video Coding
Duration                       : 8mn 18s
Bit rate                       : 4 084 Kbps
Width                          : 1 920 pixels
Height                         : 1 080 pixels
Display aspect ratio           : 16:9
Frame rate mode                : Constant
Frame rate                     : 25.000 fps
Color space                    : YUV
Chroma subsampling             : 4:2:0
Bit depth                      : 8 bits
Scan type                      : Progressive
Bits/(Pixel*Frame)             : 0.079
Stream size                    : 243 MiB (100%)
Encoded date                   : UTC 2014-06-09 16:25:14
Tagged date                    : UTC 2014-06-09 16:25:14

A ovo je tvoj video u 1080p:

Video: MPEG4 Video (H264) 1920x1080 29.97fps 4124kbps [V: h264 high L4.0, yuv420p, 1920x1080, 4124 kb/s]

Video
ID                             : 1
Format                         : AVC
Format/Info                    : Advanced Video Codec
Format profile                 : High@L4.0
Format settings, CABAC         : Yes
Format settings, ReFrames      : 3 frames
Codec ID                       : avc1
Codec ID/Info                  : Advanced Video Coding
Duration                       : 6mn 35s
Bit rate                       : 4 125 Kbps
Width                          : 1 920 pixels
Height                         : 1 080 pixels
Display aspect ratio           : 16:9
Frame rate mode                : Variable
Frame rate                     : 29.970 fps
Minimum frame rate             : 29.970 fps
Maximum frame rate             : 30.706 fps
Color space                    : YUV
Chroma subsampling             : 4:2:0
Bit depth                      : 8 bits
Scan type                      : Progressive
Bits/(Pixel*Frame)             : 0.066
Stream size                    : 194 MiB (100%)
Encoded date                   : UTC 2014-07-21 17:04:10
Tagged date                    : UTC 2014-07-21 17:04:10


Koliko vidim jedina bitna razlika je frame rate. Ti imaš 5 frejmova u sekundi više od njega a za isti bitrate.
Zlatno doba, Darvinov radio, Brzina mraka - http://www.neor.rs/arhiva/neor/

Van mreže bear

  • Dominator
  • *****
  • Poruke: 5123
Odg: GoPro tips'n'tricks
« Odgovor #10 poslato: 24.07.2014 20:15:28 »
Hmmm... pitam se sta ono frame-rate mode znaci - kod njega je constant, kod mene variable... Inace YT preporucuje da se materijal uploaduje u svom izvornom framerate-u (u mom slucaju 60), probao sam i sa 30, isti djavo, probacu i sa 25 ali ne verujem da to moze toliko da utice.

Van mreže ivica

  • Urednik
  • Dominator
  • ****
  • Poruke: 4377
    • The Art of Kendo
Odg: GoPro tips'n'tricks
« Odgovor #11 poslato: 28.07.2014 22:58:32 »
Jujuju, ovaj škotski downhil izgleda strašno :)
Movies, films and movies - Watching movies and writing about them